Sanju 2018 Hindi 720p Pre DVDRip x264 AAC { TaRa }.mkv

  • Category Movies
  • Type Bollywood
  • Language Hindi
  • Total size 1.4 GB
  • Uploaded By SkTara
  • Downloads 414812
  • Last checked 1 month ago
  • Date uploaded 1 month ago
  • Seeders 5510
  • Leechers 2484

Sanju

DramaComedy

Few lives in our times are as dramatic and enigmatic as the saga of Sanjay Dutt. Coming from a family of cinema legends, he himself became a film star, and then saw dizzying heights and darkest depths: adulation of diehard fans, unending battles with various addictions, brushes with the underworld, prison terms, loss of loved ones, and the haunting speculation that he might or might not be a terrorist. Sanju is in turns a hilarious and heartbreaking exploration of one man’s battle against his own wild self and the formidable external forces trying to crush him. It depicts the journey of a man through everything that life can throw at him. Some true stories leave you thinking “did this really happen?” This is one such unbelievable story that happens to be true.

Infohash : 587E9691F7A23B1EB2107F904584F142D6CB51AD


Sanju 2018 Hindi 720p Pre DVDRip x264 AAC { TaRa }.mkv


===================================================================
General
Complete name : Sanju 2018 Hindi 720p Pre DVDRip x264 AAC { TaRa }.mkv
Format : Matroska
Format version : Version 4 / Version 2
File size : 1.37 GiB
Duration : 2h 28mn
Overall bit rate : 1 317 Kbps
===================================================================
Video
ID : 1
Format : AVC
Format/Info : Advanced Video Codec
Format profile : [email protected]
Format settings, CABAC : Yes
Format settings, ReFrames : 4 frames
Codec ID : V_MPEG4/ISO/AVC
Duration : 2h 28mn
Bit rate : 1 187 Kbps
Width : 1 280 pixels
Height : 544 pixels
Display aspect ratio : 2.35:1
Frame rate mode : Constant
Frame rate : 25.000 fps
Color space : YUV
Chroma subsampling : 4:2:0
Bit depth : 8 bits
Scan type : Progressive
Bits/(Pixel*Frame) : 0.068
Stream size : 1.23 GiB (90%)
Title : ......:::::: TaRa :::::::.....
Language : Hindi
Default : Yes
Forced : No
===================================================================
Audio
ID : 2
Format : AAC
Format/Info : Advanced Audio Codec
Format profile : LC
Codec ID : A_AAC
Duration : 2h 28mn
Bit rate : 128 Kbps
Channel(s) : 2 channels
Channel positions : Front: L R
Sampling rate : 44.1 KHz
Frame rate : 43.066 fps (1024 spf)
Compression mode : Lossy
Stream size : 136 MiB (10%)
Title : ......:::::: TaRa :::::::.....
Language : Hindi
Default : Yes
Forced : No
===================================================================






































Files:

Sanju 2018 Hindi 720p Pre DVDRip x264 AAC { TaRa }.mkv
  • www.hdsector.to.txt (0.6 KB)
  • www.hdsector.to.nfo (6.5 KB)
  • sanju.jpg (71.5 KB)
  • Sanju-poster-8252.jpg (85.1 KB)
  • Sanju 2018 Hindi 720p Pre DVDRip x264 AAC { TaRa }.mkv.mkv (1.4 GB)

Comments

Code:

  • udp://tracker.coppersurfer.tk:6969/announce
  • udp://tracker.pirateparty.gr:6969/announce
  • udp://shadowshq.yi.org:6969/announce
  • udp://eddie4.nl:6969/announce
  • udp://tracker.leechers-paradise.org:6969/announce
  • udp://tracker.opentrackr.org:1337/announce
  • udp://p4p.arenabg.ch:1337/announce
  • udp://p4p.arenabg.com:1337/announce
  • udp://9.rarbg.me:2720/announce
  • udp://9.rarbg.to:2780/announce
  • udp://tracker.coppersurfer.tk:80/announce
  • udp://tracker.vanitycore.co:6969/announce
  • udp://public.popcorn-tracker.org:6969/announce
  • udp://tracker.opentrackr.org:1337/announce
  • udp://tracker.zer0day.to:1337/announce
SitemapEs sind noch 45 weitere Releases vorhanden. | Cultural perspective | Anatomical Terms Of Motion