Electronic Classical | HD Strain: Strategic Armored Infantry (dub) (2018) | Portraits

The Hurricane Heist(2018)1080p Blu-Ray Rip[DaScubaDude]

  • Category Movies
  • Type HD
  • Language English
  • Total size 2.1 GB
  • Uploaded By dascubadude
  • Downloads 32
  • Last checked 32 minutes ago
  • Date uploaded 8 hours ago
  • Seeders 13
  • Leechers 6

The Hurricane Heist

ActionCrimeThriller

Thieves attempt a massive heist against the U.S. Treasury as a Category 5 hurricane approaches one of its Mint facilities.

Infohash : FD6DDDA16D532605E5841E640D92D56F45A92107


[youtube]56whWF2NJrM[/youtube]
IMDb Info for this film

General
Complete name : The Hurricane Heist\The Hurricane Heist T01-1.m4v
Format : MPEG-4
Format profile : Base Media / Version 2
Codec ID : mp42 (isom/iso2/avc1/mp41)
File size : 2.13 GiB
Duration : 1 h 43 min
Overall bit rate mode : Variable
Overall bit rate : 2 951 kb/s
Movie name : The Hurricane Heist
Encoded date : UTC 2018-07-07 21:51:31
Tagged date : UTC 2018-07-07 21:51:31
Writing application : HandBrake 1.0.7 2017040900

Video
ID : 1
Format : AVC
Format/Info : Advanced Video Codec
Format profile : [email protected]
Format settings : CABAC / 4 Ref Frames
Format settings, CABAC : Yes
Format settings, RefFrames : 4 frames
Codec ID : avc1
Codec ID/Info : Advanced Video Coding
Duration : 1 h 43 min
Bit rate : 2 785 kb/s
Width : 1 920 pixels
Height : 804 pixels
Display aspect ratio : 2.40:1
Frame rate mode : Variable
Frame rate : 23.976 (24000/1001) FPS
Minimum frame rate : 23.974 FPS
Maximum frame rate : 23.981 FPS
Color space : YUV
Chroma subsampling : 4:2:0
Bit depth : 8 bits
Scan type : Progressive
Bits/(Pixel*Frame) : 0.075
Stream size : 2.01 GiB (94%)
Writing library : x264 core 148 r2708 86b7198
Encoding settings : cabac=1 / ref=2 / deblock=1:0:0 / analyse=0x1:0x111 / me=hex / subme=6 / psy=1 / psy_rd=1.00:0.00 / mixed_ref=1 / me_range=16 / chroma_me=1 / trellis=1 / 8x8dct=0 / cqm=0 / deadzone=21,11 / fast_pskip=1 / chroma_qp_offset=-2 / threads=3 / lookahead_threads=1 / sliced_threads=0 / nr=0 / decimate=1 / interlaced=0 / bluray_compat=0 / constrained_intra=0 / bframes=3 / b_pyramid=2 / b_adapt=1 / b_bias=0 / direct=1 / weightb=1 / open_gop=0 / weightp=1 / keyint=240 / keyint_min=24 / scenecut=40 / intra_refresh=0 / rc_lookahead=30 / rc=crf / mbtree=1 / crf=22.0 / qcomp=0.60 / qpmin=0 / qpmax=69 / qpstep=4 / vbv_maxrate=20000 / vbv_bufsize=25000 / crf_max=0.0 / nal_hrd=none / filler=0 / ip_ratio=1.40 / aq=1:1.00
Encoded date : UTC 2018-07-07 21:51:31
Tagged date : UTC 2018-07-07 21:51:31
Color range : Limited
Color primaries : BT.709
Transfer characteristics : BT.709
Matrix coefficients : BT.709
Menus : 3

Audio
ID : 2
Format : AAC
Format/Info : Advanced Audio Codec
Format profile : LC
Codec ID : mp4a-40-2
Duration : 1 h 43 min
Bit rate mode : Variable
Bit rate : 160 kb/s
Channel(s) : 2 channels
Channel positions : Front: L R
Sampling rate : 48.0 kHz
Frame rate : 46.875 FPS (1024 SPF)
Compression mode : Lossy
Stream size : 118 MiB (5%)
Title : Stereo / Stereo
Language : English
Default : Yes
Alternate group : 1
Encoded date : UTC 2018-07-07 21:51:31
Tagged date : UTC 2018-07-07 21:51:31
Menus : 3

Menu
ID : 3
Codec ID : text
Duration : 1 h 43 min
Language : English
Encoded date : UTC 2018-07-07 21:51:31
Tagged date : UTC 2018-07-07 21:51:31
Menu For : 1,2
00:00:00.000 : Chapter 1
00:05:41.258 : Chapter 2
00:13:15.253 : Chapter 3
00:20:49.457 : Chapter 4
00:25:48.047 : Chapter 5
00:30:08.974 : Chapter 6
00:35:01.016 : Chapter 7
00:40:40.939 : Chapter 8
00:45:48.246 : Chapter 9
00:52:34.360 : Chapter 10
01:00:22.244 : Chapter 11
01:06:49.881 : Chapter 12
01:11:02.467 : Chapter 13
01:17:43.951 : Chapter 14
01:25:06.476 : Chapter 15
01:32:38.595 : Chapter 16
Bit rate mode : VBR

Files:

The Hurricane Heist
  • screenshot960.jpg (28.8 KB)
  • screenshot958.jpg (29.8 KB)
  • screenshot962.jpg (30.3 KB)
  • screenshot961.jpg (62.7 KB)
  • Read me.rtf (3.7 MB)
  • The Hurricane Heist T01-1.m4v (2.1 GB)

There are currently no comments. Feel free to leave one :)

Code:

  • udp://tracker.openbittorrent.com:80/announce
  • UDP://TRACKER.LEECHERS-PARADISE.ORG:6969/ANNOUNCE
  • UDP://TRACKER.COPPERSURFER.TK:6969/ANNOUNCE
  • UDP://TRACKER.OPENTRACKR.ORG:1337/ANNOUNCE
  • UDP://TRACKER.ZER0DAY.TO:1337/ANNOUNCE
  • UDP://EDDIE4.NL:6969/ANNOUNCE
  • udp://tracker.opentrackr.org:1337/announce
  • udp://tracker.coppersurfer.tk:6969/announce
  • udp://9.rarbg.to:2710/announce