Ravenswood | Nagato Yuki-chan no Shoushitsu | Fullmaza

5th Passenger 2018 1080p WEB-DL DD 5.1 x264 [MW]

  • Category Movies
  • Type HD
  • Language English
  • Total size 1.9 GB
  • Uploaded By moviezworldz
  • Downloads 374
  • Last checked 1 month ago
  • Date uploaded 1 month ago
  • Seeders 17
  • Leechers 5

5th Passenger

Science Fiction

5th Passenger is set in the aftermath of an oppressive class war, Miller, a pregnant officer aboard an escape pod must struggle to survive with her remaining crew when a mysterious and vicious life form attacks, determined to become the dominant species.

Infohash : 62290ADFCD8C0216851D68D8999E8FA6E8A8F00E





General
Format : Matroska
Format version : Version 4 / Version 2
File size : 1.94 GiB
Duration : 1 h 29 min
Overall bit rate : 3 112 kb/s

Video
ID : 1
Format : AVC
Format/Info : Advanced Video Codec
Format profile : [email protected]
Format settings : CABAC / 5 Ref Frames
Format settings, CABAC : Yes
Format settings, RefFrames : 5 frames
Codec ID : V_MPEG4/ISO/AVC
Duration : 1 h 29 min
Bit rate : 2 800 kb/s
Width : 1 908 pixels
Height : 776 pixels
Display aspect ratio : 2.459
Frame rate mode : Constant
Frame rate : 23.976 (24000/1001) FPS
Color space : YUV
Chroma subsampling : 4:2:0
Bit depth : 8 bits
Scan type : Progressive
Bits/(Pixel*Frame) : 0.079
Stream size : 1.70 GiB (88%)
Writing library : x264 core 155 r2901 7d0ff22
Default : Yes
Forced : No

Audio
ID : 2
Format : AC-3
Format/Info : Audio Coding 3
Codec ID : A_AC3
Duration : 1 h 29 min
Bit rate mode : Constant
Bit rate : 384 kb/s
Channel(s) : 6 channels
Channel positions : Front: L C R, Side: L R, LFE
Sampling rate : 48.0 kHz
Frame rate : 31.250 FPS (1536 SPF)
Bit depth : 16 bits
Compression mode : Lossy
Stream size : 246 MiB (12%)
Language : English
Service kind : Complete Main
Default : Yes
Forced : No

Text
ID : 3
Format : UTF-8
Codec ID : S_TEXT/UTF8
Codec ID/Info : UTF-8 Plain Text
Duration : 1 h 21 min
Bit rate : 43 b/s
Count of elements : 1017
Stream size : 26.0 KiB (0%)
Language : English
Default : Yes
Forced : No

Menu
00:00:00.000 : en:1
00:02:49.961 : en:2
00:14:00.965 : en:3
00:25:08.007 : en:4
00:37:02.971 : en:5
00:48:45.965 : en:6
01:00:12.984 : en:7
01:12:12.995 : en:8
01:24:31.984 : en:9










Files:

5th Passenger 2018 1080p WEB-DL DD 5.1 x264 [MW]
  • 5th Passenger 2018 1080p WEB-DL DD 5.1 x264 [MW].mkv (1.9 GB)

There are currently no comments. Feel free to leave one :)

Code:

  • udp://tracker.coppersurfer.tk:6969/announce
  • udp://tracker.pirateparty.gr:6969/announce
  • udp://tracker.coppersurfer.tk:6969/announce
  • udp://tracker.leechers-paradise.org:6969/announce
  • udp://eddie4.nl:6969/announce
  • udp://tracker.tiny-vps.com:6969/announce
  • udp://9.rarbg.me:2800/announce
  • udp://9.rarbg.to:2720/announce
  • udp://public.popcorn-tracker.org:6969/announce
  • udp://open.stealth.si:80/announce
  • udp://tracker.vanitycore.co:6969/announce
  • udp://tracker.opentrackr.org:1337/announce
  • udp://bt.firebit.co.uk:6969/announce
  • udp://shadowshq.yi.org:6969/announce