The Return Of Superman Ep.230 | Zoo Tycoon Complete Collection | Digital Image Processing Using MATLAB

Rampage (2018) x 1600 (2160p) HDR 5.1 x265 10bit Phun Psyz

  • Category Movies
  • Type UHD
  • Language English
  • Total size 3.0 GB
  • Uploaded By PhunPsyz
  • Downloads 962
  • Last checked 1 month ago
  • Date uploaded 1 month ago
  • Seeders 90
  • Leechers 21

Infohash : FD7BFCA459C3B376E6921C6D780B06CB179ED2CF

www.imdb.com/title/tt2231461/

When three different animals become infected with a dangerous pathogen, a primatologist and a geneticist team up to stop them from destroying Chicago.

Source: FGT (HDR) (53.9 GiB)



Format : Matroska
Format version : Version 4 / Version 2
File size : 3.00 GiB
Duration : 1 h 47 min
Overall bit rate : 4 003 kb/s

Video
ID : 1
Format : HEVC
Format/Info : High Efficiency Video Coding
Format profile : Main [email protected]@High
Codec ID : V_MPEGH/ISO/HEVC
Duration : 1 h 47 min
Bit rate : 3 603 kb/s
Width : 3 840 pixels
Height : 1 600 pixels
Display aspect ratio : 2.40:1
Frame rate mode : Constant
Frame rate : 23.976 (24000/1001) FPS
Color space : YUV
Chroma subsampling : 4:2:0
Bit depth : 10 bits
Bits/(Pixel*Frame) : 0.024
Stream size : 2.70 GiB (90%)
Writing library : x265 2.6:[Windows][GCC 7.1.0][64 bit] 10bit

Audio
ID : 2
Format : AC-3
Format/Info : Audio Coding 3
Format settings, Endianness : Big
Codec ID : A_AC3
Duration : 1 h 47 min
Bit rate mode : Constant
Bit rate : 320 kb/s
Channel(s) : 6 channels
Channel positions : Front: L C R, Side: L R, LFE
Sampling rate : 48.0 kHz
Frame rate : 31.250 FPS (1536 SPF)
Bit depth : 16 bits
Compression mode : Lossy
Stream size : 246 MiB (8%)
Title : Surround
Language : English

Text
Language : English
Language : French
Language : Japanese
Language : Japanese
Language : Chinese
Language : Chinese
Language : Chinese
Language : Korean
Language : Spanish
Language : Portuguese
Language : Arabic
Language : Russian
Language : Thai
Language : Turkish
Language : French
Language : Chinese
Language : Spanish
Language : Portuguese
Language : Russian
Language : Thai
Language : Turkish
Default : No
Forced : No

Files:

  • Rampage (2018) x 1600 (2160p) HDR 5.1 x265 10bit Phun Psyz.mkv (3.0 GB)

Comments

Code:

  • udp://tracker.opentrackr.org:1337/announce
  • udp://public.popcorn-tracker.org:6969/announce
  • udp://tracker.leechers-paradise.org:6969/announce
  • udp://tracker.pirateparty.gr:6969/announce
  • udp://tracker.internetwarriors.net:1337/announce
  • udp://inferno.demonoid.pw:3391/announce
  • http://mgtracker.org:6969/announce
  • udp://tracker.coppersurfer.tk:6969/announce
  • udp://tracker.torrent.eu.org:451/announce
  • udp://tracker.tiny-vps.com:6969/announce