Dracula In Love 2018 1080p WEB-DL x264 [MW]

  • Category Movies
  • Type HD
  • Language English
  • Total size 1.7 GB
  • Uploaded By moviezworldz
  • Downloads 266
  • Last checked 1 month ago
  • Date uploaded 1 month ago
  • Seeders 12
  • Leechers 3

Dracula in Love

HorrorFantasy

Leila, a lonely young soul spends the night partying with her friends Nancy, David and Nash in a warehouse. As the boys drink up and smoke pot all social barriers between the sexes crumble. Leila, hit on by both men, hides away from them. Alone she senses there is someone else who wants her and certainly he is not of this world. A 200 year old Dracula escapes from a crate and reveals himself to Leila and tells her that she is his lost love. For him to live again and be with her, she must bring him the blood of her friends to drink and make love to him. Hypnotized by his sexual powers, Leila does as she is told. Leila and a handsome young Dracula get away and live happily ever after.

Infohash : 15D942D248A6F16364C0EA787825C4BD459E2F25





General
Format : Matroska
Format version : Version 4 / Version 2
File size : 1.72 GiB
Duration : 1 h 23 min
Overall bit rate : 2 960 kb/s

Video
ID : 1
Format : AVC
Format/Info : Advanced Video Codec
Format profile : [email protected]
Format settings : CABAC / 4 Ref Frames
Format settings, CABAC : Yes
Format settings, RefFrames : 4 frames
Codec ID : V_MPEG4/ISO/AVC
Duration : 1 h 23 min
Bit rate : 2 800 kb/s
Width : 1 920 pixels
Height : 1 080 pixels
Display aspect ratio : 16:9
Frame rate mode : Constant
Frame rate : 23.976 (24000/1001) FPS
Color space : YUV
Chroma subsampling : 4:2:0
Bit depth : 8 bits
Scan type : Progressive
Bits/(Pixel*Frame) : 0.056
Stream size : 1.59 GiB (92%)
Writing library : x264 core 155 r2901 7d0ff22
Default : Yes
Forced : No

Audio
ID : 2
Format : E-AC-3
Format/Info : Enhanced Audio Coding 3
Codec ID : A_EAC3
Duration : 1 h 23 min
Bit rate mode : Constant
Bit rate : 224 kb/s
Channel(s) : 2 channels
Channel positions : Front: L R
Sampling rate : 48.0 kHz
Frame rate : 187.500 FPS (256 SPF)
Compression mode : Lossy
Stream size : 133 MiB (8%)
Language : English
Service kind : Complete Main
Default : Yes
Forced : No

Text
ID : 3
Format : UTF-8
Codec ID : S_TEXT/UTF8
Codec ID/Info : UTF-8 Plain Text
Duration : 1 h 22 min
Bit rate : 42 b/s
Count of elements : 985
Stream size : 25.5 KiB (0%)
Title : SDH
Language : English
Default : No
Forced : No


Click To Enlarge Image







Files:

Dracula In Love 2018 1080p WEB-DL x264 [MW]
  • Dracula In Love 2018 1080p WEB-DL x264 [MW].mkv (1.7 GB)

There are currently no comments. Feel free to leave one :)

Code:

  • udp://tracker.coppersurfer.tk:6969/announce
  • udp://tracker.pirateparty.gr:6969/announce
  • udp://tracker.coppersurfer.tk:6969/announce
  • udp://tracker.leechers-paradise.org:6969/announce
  • udp://eddie4.nl:6969/announce
  • udp://tracker.tiny-vps.com:6969/announce
  • udp://9.rarbg.me:2800/announce
  • udp://9.rarbg.to:2720/announce
  • udp://public.popcorn-tracker.org:6969/announce
  • udp://open.stealth.si:80/announce
  • udp://tracker.vanitycore.co:6969/announce
  • udp://tracker.opentrackr.org:1337/announce
  • udp://bt.firebit.co.uk:6969/announce
  • udp://shadowshq.yi.org:6969/announce
SitemapCEMU模拟器设置教程 | Curb Your Enthusiasm | 传奇世界单机版(E路有你整合版)