Avengers.Infinity.War.3D.201... | - Red.Dog.Mein.treuer.Freund.2016.G... | Il giovane Karl Marx

Zakhmi 2018 S01 x264 720p HD Hindi GOPISAHI

  • Category Movies
  • Type Bollywood
  • Language Hindi
  • Total size 999.0 MB
  • Uploaded By PENDUDESI
  • Downloads 2917
  • Last checked 1 month ago
  • Date uploaded 1 month ago
  • Seeders 25
  • Leechers 12

Infohash : 328133DD326F805DB496D751131E03A4CF9138D1

http://www.gopisahi.pw/

Format : Matroska
Format version : Version 4 / Version 2
File size : 999 MiB
Duration : 4 h 8 min
Overall bit rate : 563 kb/s
Movie name : Zakhmi 2018 S01 GOPISAHI


Video
Format : AVC
Format/Info : Advanced Video Codec
Codec ID : V_MPEG4/ISO/AVC
Duration : 4 h 8 min
Bit rate : 499 kb/s
Width : 1 280 pixels
Height : 412 pixels
Display aspect ratio : 2.35:1
Frame rate mode : Constant
Frame rate : 25.000 FPS
Color space : YUV
Chroma subsampling : 4:2:0
Bit depth : 8 bits
Scan type : Progressive
Bits/(Pixel*Frame) : 0.038
Stream size : 886 MiB (89%)
Title : GOPISAHI
Writing library : x264 core 155 r2901 7d0ff22

Audio
Format : AAC
Duration : 4 h 8 min
Bit rate : 61.5 kb/s
Channel(s) : 2 channels
Channel positions : Front: L R
Sampling rate : 48.0 kHz
Frame rate : 46.875 FPS (1024 SPF)
Compression mode : Lossy
Delay relative to video : -21 ms
Stream size : 109 MiB (11%)
Title : GOPISAHI
Language : Hindi


Files:

  • Zakhmi 2018 S01 x264 720p HD Hindi GOPISAHI.mkv (999.0 MB)

Comments

Code:

  • udp://9.rarbg.com:2740/announce
  • udp://9.rarbg.to:2800/announce
  • udp://inferno.demonoid.pw:3391/announce
  • udp://tracker.leechers-paradise.org:6969/announce
  • udp://tracker.coppersurfer.tk:80/announce
  • udp://tracker.coppersurfer.tk:6969/announce
  • udp://tracker.opentrackr.org:1337/announce
  • udp://p4p.arenabg.com:1337/announce
  • UDP://EDDIE4.NL:6969/ANNOUNCE
  • udp://tracker.pirateparty.gr:6969/announce
  • udp://tracker.tiny-vps.com:6969/announce
  • udp://public.popcorn-tracker.org:6969/announce
  • udp://tracker.torrent.eu.org:451/announce