Murena - tome 1 - La Pourpre et l'or | Technology | Os meninos da Camorra

Blade Runner 2049 (2017) x 1600 (2160p) HDR 5.1 x265 10bit Phun P...

  • Category Movies
  • Type UHD
  • Language English
  • Total size 2.3 GB
  • Uploaded By PhunPsyz
  • Downloads 26
  • Last checked 7 minutes ago
  • Date uploaded 7 hours ago
  • Seeders 23
  • Leechers 35

Infohash : 61D9016DCE4EE669159C4C7D0486D0BF12F61185

www.imdb.com/title/tt1856101/

A young blade runner's discovery of a long-buried secret leads him to track down former blade runner Rick Deckard, who's been missing for thirty years.

Source: TERMiNAL (HDR) (16.8 GiB)



Format : Matroska
Format version : Version 4 / Version 2
File size : 2.35 GiB
Duration : 2 h 43 min
Overall bit rate : 2 056 kb/s

Video
ID : 1
Format : HEVC
Format/Info : High Efficiency Video Coding
Format profile : Main [email protected]@High
Codec ID : V_MPEGH/ISO/HEVC
Duration : 2 h 43 min
Bit rate : 1 695 kb/s
Width : 3 840 pixels
Height : 1 600 pixels
Display aspect ratio : 2.40:1
Frame rate mode : Constant
Frame rate : 23.976 (24000/1001) FPS
Color space : YUV
Chroma subsampling : 4:2:0
Bit depth : 10 bits
Bits/(Pixel*Frame) : 0.012
Stream size : 1.94 GiB (82%)
Writing library : x265 2.6:[Windows][GCC 7.1.0][64 bit] 10bit

Audio
ID : 2
Format : AC-3
Format/Info : Audio Coding 3
Format settings, Endianness : Big
Codec ID : A_AC3
Duration : 2 h 43 min
Bit rate mode : Constant
Bit rate : 320 kb/s
Channel(s) : 6 channels
Channel positions : Front: L C R, Side: L R, LFE
Sampling rate : 48.0 kHz
Frame rate : 31.250 FPS (1536 SPF)
Bit depth : 16 bits
Compression mode : Lossy
Stream size : 374 MiB (16%)
Title : Surround
Language : English

Text
Language : English
Language : English
Default : No
Forced : No

Files:

  • Blade Runner 2049 (2017) x 1600 (2160p) HDR 5.1 x265 10bit Phun Psyz.mkv (2.3 GB)

There are currently no comments. Feel free to leave one :)

Code:

  • udp://tracker.opentrackr.org:1337/announce
  • udp://public.popcorn-tracker.org:6969/announce
  • udp://tracker.leechers-paradise.org:6969/announce
  • udp://tracker.pirateparty.gr:6969/announce
  • udp://tracker.internetwarriors.net:1337/announce
  • udp://inferno.demonoid.pw:3391/announce
  • http://mgtracker.org:6969/announce
  • udp://tracker.coppersurfer.tk:6969/announce
  • udp://tracker.torrent.eu.org:451/announce
  • udp://tracker.tiny-vps.com:6969/announce